欢迎光临日饭,今天是 注册邀请码公布贴 微信:RiTiao
» 您尚未 登录   注册 | 银行 | 帮助

日饭 -> LIVE专区 -> [LIVE]Perfume - Dance+Opening+LIVE (BS朝日 MTV VMAJ 2012).ts(2.3G/快传/BS卫星信号)
妈吉 为娃 日搜 - JPSEEK.COM 广告赞助合作联系QQ:136547666
躺瘦训练营 腔调 广告赞助合作联系QQ:136547666 广告赞助合作联系QQ:136547666

 «  <   1   2   3   4   5   >   »   跳转到第页 ( 第 1 页/共 35 页 )
2012-08-05 08:48 [LIVE]Perfume - Dance+Opening+LIVE (BS朝日 MTV VMAJ 2012).ts(2.3G/快传/BS卫星信号) [楼 主] | 收藏主题
wangchen

头衔:微博→HDTV_水怪哥微博→HDTV_水怪哥
该用户目前不在线
级别: 总版主
精华: 141
发帖: 38349
威望: 1600 点
银子: 312410 两
宣传贡献值: 1755 点
在线时间:19661(小时)
注册时间:2008-01-17
最后登录:2019-11-28

认证会员

查看作者资料 发送短消息 引用回复这个帖子

[LIVE]Perfume - Dance+Opening+LIVE (BS朝日 MTV VMAJ 2012).ts(2.3G/快传/BS卫星信号)













获取最新LIVE资源,请关注日饭LIVE专区微博
http://weibo.com/u/1960287327


文件打包,并添加3%恢复记录,如有坏包请自行修复
解压密码:wangchen
上传前已经过解压测试,密码无误



原创录制作品,转载请注明 bluespig from 日饭LIVE专区


QUOTE:

D:\[大水怪] Perfume - Special Medley (BS朝日 MTV VMAJ 2012).ts
  General #16400
    ID : 16400 (0x4010)
    Complete name : D:\[大水怪] Perfume - Special Medley (BS朝日 MTV VMAJ 2012).ts
    Format : MPEG-TS
    File size : 1.63 GiB
    Duration : 9mn 56s
    Start time : UTC 2012-07-28 03:59:31
    End time : UTC 2012-07-28 04:09:26
    Overall bit rate mode : Variable
    Overall bit rate : 23.4 Mbps
    Network name : 塀S Digital
    Original network name : Astra 2
    Frequency : 11727480000
    OrbitalPosition : 110.0E
  Video #320
    ID : 320 (0x140)
    Menu ID : 151 (0x97)
    Format : MPEG Video
    Format version : Version 2
    Format profile : Main@High
    Format settings, BVOP : Yes
    Format settings, Matrix : Custom
    Format settings, GOP : M=3, N=15
    Codec ID : 2
    Duration : 9mn 56s
    Bit rate mode : Variable
    Bit rate : 22.1 Mbps
    Maximum bit rate : 24.0 Mbps
    Width : 1 920 pixels
    Height : 1 080 pixels
    Display aspect ratio : 16:9
    Frame rate : 29.970 fps
    Color space : YUV
    Chroma subsampling : 4:2:0
    Bit depth : 8 bits
    Scan type : Interlaced
    Scan order : Top Field First
    Compression mode : Lossy
    Bits/(Pixel*Frame) : 0.355
    Stream size : 1.53 GiB (94%)
  Audio #321
    ID : 321 (0x141)
    Menu ID : 151 (0x97)
    Format : AAC
    Format/Info : Advanced Audio Codec
    Format version : Version 2
    Format profile : LC
    Muxing mode : ADTS
    Codec ID : 15
    Duration : 9mn 56s
    Bit rate mode : Constant
    Bit rate : 192 Kbps
    Channel(s) : 2 channels
    Channel positions : Front: L R
    Sampling rate : 48.0 KHz
    Compression mode : Lossy
    Delay relative to video : -240ms
    Stream size : 13.7 MiB (1%)



出演曲目:
Laser Beam
Spring of Life


下载地址:


本部分内容设定了隐藏,需要回复后才能看到





[ 此贴被wangchen在2013-02-07 15:12重新编辑 ]

此帖被评分,最近评分记录
银子:200(czlimy)

2012-08-05 08:54 [1 楼]
thomasleader

头衔:SecretCrush_SecretCrush_
该用户目前不在线
级别: 认证日饭
精华: 5
发帖: 900
威望: 150 点
银子: 18146 两
宣传贡献值: 1391 点
在线时间:1316(小时)
注册时间:2011-11-05
最后登录:2018-03-24

认证会员
查看作者资料 发送短消息 引用回复这个帖子



BS!终于来了

这个要收藏啊~赶紧DL下来~高清就是不一样啊~~

水怪哥辛苦啦~~~

2012-08-05 09:01 [2 楼]
vitadolcecho



该用户目前不在线
级别: 五段日饭
精华: 0
发帖: 1027
威望: 0 点
银子: 456 两
宣传贡献值: 0 点
在线时间:410(小时)
注册时间:2011-08-05
最后登录:2019-11-30

查看作者资料 发送短消息 引用回复这个帖子



看起来比以前黑乎乎的效果好了不知道多少倍
谢谢蘑菇哥的辛苦劳动!

2012-08-05 09:03 [3 楼]
eastwood



该用户目前不在线
级别: 六段日饭
精华: 0
发帖: 2227
威望: 5 点
银子: 528 两
宣传贡献值: 0 点
在线时间:2234(小时)
注册时间:2010-01-10
最后登录:2019-12-02

查看作者资料 发送短消息 引用回复这个帖子



最好的东西呀,支持了
2012-08-05 09:14 [4 楼]
zangwill



该用户目前不在线
级别: 一段日饭
精华: 0
发帖: 4
威望: 0 点
银子: 4 两
宣传贡献值: 0 点
在线时间:0(小时)
注册时间:2012-06-19
最后登录:2014-01-02

查看作者资料 发送短消息 引用回复这个帖子



超爱这场LIVE,终于有更好效果的了,赶紧下载收藏!
2012-08-05 09:19 [5 楼]
homer0403



该用户目前不在线
级别: 四段日饭
精华: 0
发帖: 420
威望: 0 点
银子: 495 两
宣传贡献值: 0 点
在线时间:166(小时)
注册时间:2012-01-03
最后登录:2018-10-20

查看作者资料 发送短消息 引用回复这个帖子



1920X1080 ... 好清楚阿
感謝水怪哥的分享~

2012-08-05 09:43 [6 楼]
lovelena

该用户目前不在线
级别: 五段日饭
精华: 0
发帖: 644
威望: 0 点
银子: 412 两
宣传贡献值: 0 点
在线时间:554(小时)
注册时间:2009-10-11
最后登录:2018-01-09

查看作者资料 发送短消息 引用回复这个帖子



好激动 万分感谢水怪
2012-08-05 09:44 [7 楼]
xiaomoon



该用户目前不在线
级别: 六段日饭
精华: 0
发帖: 2050
威望: 15 点
银子: 7810 两
宣传贡献值: 0 点
在线时间:4740(小时)
注册时间:2010-05-17
最后登录:2017-02-03

查看作者资料 发送短消息 引用回复这个帖子



水怪能求菊菊的部分吗
2012-08-05 10:12 [8 楼]
closer1840



该用户目前不在线
级别: 三段日饭
精华: 0
发帖: 164
威望: 0 点
银子: 143 两
宣传贡献值: 0 点
在线时间:37(小时)
注册时间:2011-09-24
最后登录:2019-07-12

查看作者资料 发送短消息 引用回复这个帖子



感谢啊。。。下载。。。
2012-08-05 10:20 [9 楼]
未来的以后

该用户目前不在线
级别: 五段日饭
精华: 0
发帖: 1205
威望: 0 点
银子: 340 两
宣传贡献值: 0 点
在线时间:555(小时)
注册时间:2009-09-07
最后登录:2019-12-11

查看作者资料 发送短消息 引用回复这个帖子



又是PERFUME高清版本的歌曲
谢谢

 «  <   1   2   3   4   5   >   »   跳转到第页 ( 第 1 页/共 35 页 )





Copyright (C) 2017
JPFans.COM All Rights Reserved.
沪ICP备05050716号


本站为涉外网站,请大家注意言行,一起塑造良好的中国人新形象!
唯一广告赞助合作联系方式『QQ: 136-547-666 Mail: 77@touchjapan.com TEL: 159-017-01777』