欢迎光临日饭,今天是 注册邀请码公布贴 微信:RiTiao
» 您尚未 登录   注册 | 银行 | 帮助

日饭 -> PV共享 -> MPEG2资源专区 -> [PV]Perfume - Spending all my time (2012.08.15).ts(1920x1080 WOWOW)(618M/快传)
妈吉 为娃 日搜 - JPSEEK.COM 广告赞助合作联系QQ:136547666
躺瘦训练营 腔调 广告赞助合作联系QQ:136547666 广告赞助合作联系QQ:136547666

 «  <   1   2   3   4   5   >   »   跳转到第页 ( 第 1 页/共 24 页 )
2012-09-09 16:01 [PV]Perfume - Spending all my time (2012.08.15).ts(1920x1080 WOWOW)(618M/快传) [楼 主] | 收藏主题
wangchen

头衔:微博→HDTV_水怪哥微博→HDTV_水怪哥
该用户目前不在线
级别: 总版主
精华: 141
发帖: 38349
威望: 1600 点
银子: 312410 两
宣传贡献值: 1755 点
在线时间:19661(小时)
注册时间:2008-01-17
最后登录:2019-11-28

认证会员

查看作者资料 发送短消息 引用回复这个帖子

[PV]Perfume - Spending all my time (2012.08.15).ts(1920x1080 WOWOW)(618M/快传)




获取最新LIVE资源,请关注日饭LIVE专区微博
http://weibo.com/u/1960287327


文件打包,并添加3%恢复记录,如有坏包请自行修复
解压密码:wangchen
上传前已经过解压测试,密码无误


 

1920x1080i MPEG2-TS,更高分辨率、高码率、包含info,目前最好版本
来自WOWOW LIVE频道放送的MUSIC JOY★FULL节目


片源录制:bluespig


QUOTE:
D:\[大水怪] Perfume - Spending all my time (WOWOW LIVE 2012.09.07).ts
  General #17488
    ID : 17488 (0x4450)
    Complete name : D:\[大水怪] Perfume - Spending all my time (WOWOW LIVE 2012.09.07).ts
    Format : MPEG-TS
    File size : 618 MiB
    Duration : 3mn 54s
    Start time : UTC 2012-09-07 18:01:00
    End time : UTC 2012-09-07 18:04:50
    Overall bit rate mode : Variable
    Overall bit rate : 22.1 Mbps
    Network name : 塀S Digital
    Original network name : Astra 2
  Video #576
    ID : 576 (0x240)
    Menu ID : 192 (0xC0)
    Format : MPEG Video
    Format version : Version 2
    Format profile : Main@High
    Format settings, BVOP : Yes
    Format settings, Matrix : Custom
    Format settings, GOP : M=3, N=15
    Codec ID : 2
    Duration : 3mn 54s
    Bit rate mode : Variable
    Bit rate : 20.8 Mbps
    Maximum bit rate : 24.0 Mbps
    Width : 1 920 pixels
    Height : 1 080 pixels
    Display aspect ratio : 16:9
    Frame rate : 29.970 fps
    Color space : YUV
    Chroma subsampling : 4:2:0
    Bit depth : 8 bits
    Scan type : Interlaced
    Scan order : Top Field First
    Compression mode : Lossy
    Bits/(Pixel*Frame) : 0.335
    Stream size : 581 MiB (94%)
  Audio #577
    ID : 577 (0x241)
    Menu ID : 192 (0xC0)
    Format : AAC
    Format/Info : Advanced Audio Codec
    Format version : Version 2
    Format profile : LC
    Muxing mode : ADTS
    Codec ID : 15
    Duration : 3mn 54s
    Bit rate mode : Constant
    Bit rate : 192 Kbps
    Channel(s) : 2 channels
    Channel positions : Front: L R
    Sampling rate : 48.0 KHz
    Compression mode : Lossy
    Delay relative to video : -306ms
    Stream size : 5.38 MiB (1%)



下载地址:


本部分内容设定了隐藏,需要回复后才能看到





[ 此贴被wangchen在2012-09-09 16:10重新编辑 ]

此帖被评分,最近评分记录
银子:60(czlimy)

2012-09-09 16:15 [1 楼]
czlimy

头衔:快传链接失效请及时PM快传链接失效请及时PM
该用户目前不在线
级别: 零段日饭
精华: 2
发帖: 15054
威望: 360 点
银子: 256820 两
宣传贡献值: 2345 点
在线时间:15291(小时)
注册时间:2008-03-22
最后登录:2019-07-03

认证会员
查看作者资料 发送短消息 引用回复这个帖子



这个台的终于有人撸了 收藏
2012-09-09 16:18 [2 楼]
cock83

该用户目前不在线
级别: 六段日饭
精华: 0
发帖: 1561
威望: 110 点
银子: 1954 两
宣传贡献值: 0 点
在线时间:6121(小时)
注册时间:2010-08-10
最后登录:2016-04-15

查看作者资料 发送短消息 引用回复这个帖子



WOWOW台播出的畫質絕對是很讚!
己經收了不少台的版本了 ^^y
謝謝蘑菇跟朋友的錄製!!辛苦了

2012-09-09 16:19 [3 楼]
小棉



该用户目前不在线
级别: 一段日饭
精华: 0
发帖: 8
威望: 0 点
银子: 8 两
宣传贡献值: 0 点
在线时间:0(小时)
注册时间:2011-12-31
最后登录:2013-02-01

查看作者资料 发送短消息 引用回复这个帖子



终于有时间来收档啦!各种美丽的香水><
这次的造型感觉十分恬静怡人呐!

2012-09-09 16:20 [4 楼]
kephi



该用户目前不在线
级别: 三段日饭
精华: 0
发帖: 136
威望: 0 点
银子: 98 两
宣传贡献值: 0 点
在线时间:31(小时)
注册时间:2011-02-07
最后登录:2014-01-22

查看作者资料 发送短消息 引用回复这个帖子



嘻嘻,好期待的噜,希望能有SOL的wowow版的画质哇!
2012-09-09 16:23 [5 楼]
xiaomoon



该用户目前不在线
级别: 六段日饭
精华: 0
发帖: 2050
威望: 15 点
银子: 7810 两
宣传贡献值: 0 点
在线时间:4740(小时)
注册时间:2010-05-17
最后登录:2017-02-03

查看作者资料 发送短消息 引用回复这个帖子



收下了,感谢分享
2012-09-09 16:32 [6 楼]
morichan

该用户目前不在线
级别: 认证日饭
精华: 0
发帖: 85
威望: 0 点
银子: 82 两
宣传贡献值: 0 点
在线时间:18(小时)
注册时间:2011-09-03
最后登录:2018-01-01

认证会员
查看作者资料 发送短消息 引用回复这个帖子



哦哦!!真正的高清w
感谢发档~

2012-09-09 16:33 [7 楼]
avalonzheng



该用户目前不在线
级别: 三段日饭
精华: 0
发帖: 137
威望: 0 点
银子: 132 两
宣传贡献值: 0 点
在线时间:50(小时)
注册时间:2012-06-28
最后登录:2019-01-27

查看作者资料 发送短消息 引用回复这个帖子



于是果断洗版了
2012-09-09 16:35 [8 楼]
小k!

该用户目前不在线
级别: 认证日饭
精华: 1
发帖: 446
威望: 0 点
银子: 1130 两
宣传贡献值: 0 点
在线时间:343(小时)
注册时间:2011-12-08
最后登录:2016-05-22

认证会员
查看作者资料 发送短消息 引用回复这个帖子



感谢水怪大哥·!
高清的果断收下~~







2012-09-09 16:37 [9 楼]
dffifa



该用户目前不在线
级别: 三段日饭
精华: 0
发帖: 207
威望: 0 点
银子: 129 两
宣传贡献值: 0 点
在线时间:15(小时)
注册时间:2012-06-22
最后登录:2019-08-17

查看作者资料 发送短消息 引用回复这个帖子



谢谢楼主了,高清的很喜欢!
 «  <   1   2   3   4   5   >   »   跳转到第页 ( 第 1 页/共 24 页 )





Copyright (C) 2017
JPFans.COM All Rights Reserved.
沪ICP备05050716号


本站为涉外网站,请大家注意言行,一起塑造良好的中国人新形象!
唯一广告赞助合作联系方式『QQ: 136-547-666 Mail: 77@touchjapan.com TEL: 159-017-01777』